Ad

The Raid 2 – Berandal (2014).BRrip.XviD – Italian.Ind.Ac3.5.1.Sub.ita.iCV-MIRCrew torrent




Download The Raid 2 – Berandal (2014).BRrip.XviD – Italian.Ind.Ac3.5.1.Sub.ita.iCV-MIRCrew torrent, The Raid 2 – Berandal (2014).BRrip.XviD – Italian.Ind.Ac3.5.1.Sub.ita.iCV-MIRCrew torrent Free Download, The Raid 2 – Berandal (2014).BRrip.XviD – Italian.Ind.Ac3.5.1.Sub.ita.iCV-MIRCrew torrent Software Download, The Raid 2 – Berandal (2014).BRrip.XviD – Italian.Ind.Ac3.5.1.Sub.ita.iCV-MIRCrew torrent Download Free, Free Torrent Apps Download, U Torrent Apps, Free The Raid 2 – Berandal (2014).BRrip.XviD – Italian.Ind.Ac3.5.1.Sub.ita.iCV-MIRCrew torrent Software Download, Utorrent Download Apps, Download The Raid 2 – Berandal (2014).BRrip.XviD – Italian.Ind.Ac3.5.1.Sub.ita.iCV-MIRCrew torrent Full App Torrent, Utorrent Tools Download, Torrent Books Free Download
The Raid 2 – Berandal (2014).BRrip.XviD – Italian.Ind.Ac3.5.1.Sub.ita.iCV-MIRCrew torrent
The Raid 2 - Berandal (2014).BRrip.XviD - Italian.Ind.Ac3.5.1.Sub.ita.iCV-MIRCrew  torrent
Information

The Raid 2 – Berandal (2014).BRrip.XviD – Italian.Ind.Ac3.5.1.Sub.ita.iCV-MIRCrew


NO FOUND ONLY ORIGINAL RELEASE

My release is always in double track audio italian and Original audio
for select it use VLC or dvd player home
not use wmp

The Raid 2 – Berandal (2014)

Titolo originale Serbuan maut 2: Berandal
Lingua originale indonesiana
Paese di produzione Indonesia
Anno 2014
Durata 150 min
Colore colore
Audio sonoro
Rapporto 2,35: 1
Genere azione, thriller, arti marziali
Regia Gareth Evans
Soggetto Gareth Evans
Sceneggiatura Gareth Evans
Produttore Ario Sagantoro, Nate Bolotin, Aram Tertzakian
Produttore esecutivo Todd Brown, Nick Spicer, Irwan D. Mussry, Rangga Maya Barack-Evans
Casa di produzione Merantau Films, XYZ Films
Distribuzione (Italia) Movies Inspired
Fotografia Matt Flannery, Dimas Imam Subhono
Montaggio Gareth Evans
Musiche Aria Prayogi, Joseph Trapanese, Fajar Yuskemal
Trucco Kumalasari Tanara

Iko Uwais: Rama
Arifin Putra: Ucok
Oka Antara: Eka
Cecep Arif Rahman: Assassino
Cok Simbara: Bunawar
Yayan Ruhian: Prakoso
Ryûhei Matsuda: Keiichi
Kazuki Kitamura: Ryuichi
Very Tri Yulisman:
Raiden Integra:
Donny Alamsyah: Andi
Julie Estelle: Alicia
Tio Pakusodewo: Bangun
Ken’ichi Endô: Goto
ecc……………………………
 

Jakarta: Rama, dopo aver sgominato una gang e aver attirato su di sé le attenzioni della mala indonesiana, continua a indagare sulla corruzione nelle forze di polizia, ma per potersi infiltrare nell’organizzazione di Bangun e dell’ambizioso figlio Uco è costretto a cambiare identità e a passare un lungo periodo in carcere, lontano dalla famiglia………..

Only a short time after the first raid, Rama goes undercover with the thugs of Jakarta and plans to bring down the syndicate and uncover the corruption within his police force. ………

[spoiler]
General
Complete name                            : The Raid 2 – Berandal (2014).ita.ind.sub.ita-MIRCrew.avi
Format                                   : AVI
Format/Info                              : Audio Video Interleave
Format profile                           : OpenDML
File size                                : 2.53 GiB
Duration                                 : 2h 30mn
Overall bit rate                         : 2 413 Kbps
Movie name                               : ENCODED by www.icv-crew.org
Writing application                      : VirtualDubMod 1.5.10.2 (build 2540/release)
Writing library                          : VirtualDubMod build 2540/release

Video
ID                                       : 0
Format                                   : MPEG-4 Visual
Format profile                           : Simple@L3
Format settings, BVOP                    : No
Format settings, QPel                    : No
Format settings, GMC                     : No warppoints
Format settings, Matrix                  : Default (H.263)
Codec ID                                 : XVID
Codec ID/Hint                            : XviD
Duration                                 : 2h 30mn
Bit rate                                 : 1 500 Kbps
Width                                    : 720 pixels
Height                                   : 300 pixels
Display aspect ratio                     : 2.40:1
Frame rate                               : 24.000 fps
Color space                              : YUV
Chroma subsampling                       : 4:2:0
Bit depth                                : 8 bits
Scan type                                : Progressive
Compression mode                         : Lossy
Bits/(Pixel*Frame)                       : 0.289
Stream size                              : 1.57 GiB (62%)
Writing library                          : XviD 64

Audio #1
ID                                       : 1
Format                                   : AC-3
Format/Info                              : Audio Coding 3
Mode extension                           : CM (complete main)
Codec ID                                 : 2000
Duration                                 : 2h 30mn
Bit rate mode                            : Constant
Bit rate                                 : 448 Kbps
Channel(s)                               : 6 channels
Channel positions                        : Front: L C R, Side: L R, LFE
Sampling rate                            : 48.0 KHz
Bit depth                                : 16 bits
Compression mode                         : Lossy
Stream size                              : 481 MiB (19%)
Alignment                                : Split accross interleaves
Interleave, duration                     : 42 ms (1.00 video frame)
Interleave, preload duration             : 500 ms

Audio #2
ID                                       : 2
Format                                   : AC-3
Format/Info                              : Audio Coding 3
Mode extension                           : CM (complete main)
Codec ID                                 : 2000
Duration                                 : 2h 30mn
Bit rate mode                            : Constant
Bit rate                                 : 448 Kbps
Channel(s)                               : 6 channels
Channel positions                        : Front: L C R, Side: L R, LFE
Sampling rate                            : 48.0 KHz
Bit depth                                : 16 bits
Compression mode                         : Lossy
Stream size                              : 481 MiB (19%)
Alignment                                : Split accross interleaves
Interleave, duration                     : 42 ms (1.00 video frame)
Interleave, preload duration             : 500 ms


[/spoiler]

Download Now

You Need to Download Torrent before Downloading  the File.
Click here to Download Torrent !

Download Via Torrent


Download Using Magnet Link


Note
Download Only From DownloadMaar.com

Leave a Reply

Your email address will not be published. Required fields are marked *

Variety to Download © 2016